<?xml version="1.0" standalone="no"?>
<!DOCTYPE svg PUBLIC "-//W3C//DTD SVG 1.1//EN" "http://www.w3.org/Graphics/SVG/1.1/DTD/svg11.dtd" >
<svg xmlns="http://www.w3.org/2000/svg">
<metadata>Generated by IcoMoon</metadata>
<defs>
<font id="icomoon" horiz-adv-x="1024">
<font-face units-per-em="1024" ascent="960" descent="-64" />
<missing-glyph horiz-adv-x="1024" />
<glyph unicode="&#x20;" horiz-adv-x="512" d="" />
<glyph unicode="&#xe900;" glyph-name="jiantou" d="M886.513 448.007l-748.773-442.838v885.675l748.773-442.838z" />
<glyph unicode="&#xe901;" glyph-name="tishi_mywallet" d="M511.069 80.22c202.654 0 367.78 165.127 367.78 367.78s-165.123 367.78-367.78 367.78c-202.654 0-367.78-165.127-367.78-367.78s165.127-367.78 367.78-367.78v0zM511.069 5.162c-247.688 0-442.838 195.15-442.838 442.838s195.15 442.838 442.838 442.838 442.838-195.15 442.838-442.838-195.146-442.838-442.838-442.838zM511.069 523.058c22.516 0 37.527-15.012 37.527-37.527v-225.173c0-22.516-15.012-37.527-37.527-37.527s-37.527 15.012-37.527 37.527v225.173c0 15.008 15.012 37.527 37.527 37.527zM511.069 703.192c22.516 0 37.527-15.012 37.527-37.527v-37.527c0-22.516-15.012-37.527-37.527-37.527s-37.527 15.012-37.527 37.527v37.527c0 22.516 15.012 37.527 37.527 37.527z" />
<glyph unicode="&#xe902;" glyph-name="car" d="M952.949 493.183c-12.714 34.043-32.241 57.036-73.819 52.345-6.127-0.65-17.053 11.877-20.402 20.357-19.775 50.771-38.561 101.953-56.483 153.45-11.275 32.597-34.109 53.954-65.675 62.644-42.661 11.794-86.616 18.942-129.994 28.106-63.378 9.372-120.653 9.701-189.988 0-24.685-3.788-49.546-6.857-74.085-11.548-65.204-12.524-116.255-40.841-134.868-111.235-11.112-41.852-27.785-82.399-43.339-122.96-3.017-7.833-13.161-19.54-18.675-18.814-45.508 5.736-63.281-21.976-75.424-57.922-2.218-8.327-0.955-15.959 0-22.218 17.499-4.605 34.946-9.213 47.252-12.438-0.872-65.678-1.851-130.869-2.494-196.059-0.346-35.147-1.744-70.373 0.671-105.35 1.176-16.153 7.196-41.281 16.042-47.498 6.528-8.725 123.448-8.404 145.272 0 9.998 3.792 14.935 55.054 23.235 85.547h428.508c10.531-28.84-9.625-64.381 23.142-85.547 9.791-6.788 135.951-7.234 141.601 2.47 5.989 3.747 14.607 26.774 14.877 41.641 1.657 82.959 1.166 166.009 0.481 249.055-0.111 18.174-4.169 36.385-6.418 54.282 15.925 4.363 33.247 9.137 50.563 13.897 1.36 6.957 3.041 17.368 0.021 27.795zM334.149 344.539c-3.442-9.289-17.236-18.101-28.103-20.599-14.973-3.515-31.566-4.044-47.314-4.044-0.042-0.564-0.024-0.28 0 0-0.010 0-0.017 0.010-0.024 0.010-23.014 2.373-46.411 2.979-68.93 7.674-29.29 6.096-37.517 27.871-28.698 66.841 6.041 26.698 26.989 27.871 45.758 21.689 37.721-12.313 74.663-27.373 110.644-44.014 8.632-3.968 19.104-20.934 16.669-27.556zM220.896 532.035c21.619 60.43 40.302 116.335 62.222 170.859 4.179 10.504 20.301 19.717 32.528 22.654 29.698 7.068 60.399 14.185 90.636 13.939 91.878-0.647 183.764-3.958 275.601-8.075 37.697-1.661 62.987-20.838 73.549-59.773 12.316-45.408 28.636-89.675 44.875-139.608-193.631-41.603-382.418-40.634-579.412 0.003zM838.811 328.901c-24.173-5.612-49.376-6.504-69.709-8.922-23.232 1.896-42.094 1.533-60.001 5.407-22.353 4.854-29.39 31.102-9.76 40.63 42.758 20.685 87.903 37.254 133.346 51.262 18.194 5.615 30.75-9.493 31.372-29.604 0.792-23.508 7.746-51.21-25.249-58.773z" />
<glyph unicode="&#xe903;" glyph-name="eye" d="M515.657 557.983c-58.558 0-109.796-47.577-109.796-109.796 0-58.558 47.577-109.796 109.796-109.796s109.796 47.577 109.796 109.796-51.241 109.796-109.796 109.796v0zM511.997 704.375c-182.992 0-344.023-87.838-442.838-248.868 102.475-161.030 263.506-263.506 442.838-263.506 182.992 0 344.023 106.136 442.838 267.166-98.815 161.034-259.849 245.208-442.838 245.208v0zM515.657 265.198c-102.475 0-186.653 84.177-186.653 186.649 0 102.475 84.177 186.653 186.653 186.653s182.992-87.838 182.992-190.313c-0.003-102.472-80.52-182.989-182.992-182.989v0z" />
<glyph unicode="&#xe904;" glyph-name="time" d="M825.322 761.149c-83.676 83.606-194.883 129.668-313.239 129.668-118.314 0-229.535-46.062-313.176-129.675-83.672-83.641-129.748-194.862-129.748-313.162-0.021-118.314 46.021-229.508 129.682-313.204 83.631-83.561 194.866-129.63 313.162-129.63 118.355 0 229.625 46.097 313.322 129.72 172.665 172.641 172.693 453.573-0.003 626.283v0 0zM784.504 175.679c-72.785-72.757-169.558-112.865-272.501-112.865-102.87 0-199.619 40.091-272.356 112.778-72.736 72.733-112.785 169.465-112.768 272.383 0 102.901 40.066 199.647 112.83 272.363 72.75 72.719 169.472 112.761 272.376 112.761 102.911 0 199.651-40.042 272.418-112.768 150.174-150.177 150.174-394.527 0-544.652v0 0zM703.489 339.453l-153.108 88.526v241.419c0 20.374-16.534 36.904-36.918 36.904-20.371 0-36.901-16.527-36.901-36.904v-258.323c0-13.686 17.018-25.166 28.089-31.514 3.062-4.608 11.479-8.781 16.61-11.732l152.26-92.262c17.637-10.178 36.762-4.131 46.951 13.51 10.189 17.644 0.702 40.191-16.984 50.376v0 0 0z" />
<glyph unicode="&#xe905;" glyph-name="yinsibaohu" d="M820.097 550.904h-67.958v121.185c0 131.014-107.578 218.762-239.952 218.762-132.377 0-240.084-88.914-240.084-219.928v-119.999h-67.896c-32.77-0.021-59.295-26.269-59.295-58.693v-428.321c0-32.469 26.529-58.735 59.275-58.735h615.956c32.749 0 59.212 26.269 59.212 58.735v428.324c0.017 32.424-26.511 58.669-59.257 58.669zM545.452 266.907v-93.536c0-4.169-3.501-7.691-7.777-7.691h-50.957c-4.342 0-7.843 3.522-7.843 7.691v93.536c-23.934 12.119-40.527 36.399-40.527 64.893 0 40.288 33.050 73.058 73.75 73.058 40.762 0 73.812-32.77 73.812-73.058 0.066-28.473-16.503-52.774-40.457-64.893zM660.050 549.479h-295.729v130.52c0 69.041 66.405 125.247 147.929 125.247s147.801-56.209 147.801-125.247v-130.52z" />
<glyph unicode="&#xe906;" glyph-name="anquanbaozhang" d="M513.325 901.857l-402.443-79.175v-473.075c0-9.199 15.112-227.996 394.229-334.768h6.241l7.227 1.643c57.399 14.596 112.63 36.69 164.262 65.706 114.657 64.063 189.559 153.094 216.499 256.908v483.257l-386.016 79.503zM190.386 767.49l314.726 62.748v-333.125h-314.726v270.377zM506.098 497.113h313.74v-153.751c0 0-15.769-169.52-313.74-252.964v406.715z" />
<glyph unicode="&#xe907;" glyph-name="buzhoudian" d="M511.997 790.846c189.348 0 342.846-153.499 342.846-342.846s-153.499-342.846-342.846-342.846c-189.348 0-342.846 153.499-342.846 342.846-0.003 189.348 153.499 342.846 342.846 342.846z" />
<glyph unicode="&#xe908;" glyph-name="canyuhudong" d="M931.852 475.788c21 20.27 28.29 50.016 19.395 77.576-9.040 27.56-32.663 47.394-61.537 51.476l-199.924 29.020c-8.604 1.166-16.039 6.563-19.831 14.292l-89.391 180.238c-12.832 26.103-39.080 42.288-68.245 42.288-29.31 0-55.414-16.184-68.391-42.288l-89.536-180.384c-3.937-7.729-11.227-13.123-19.831-14.292l-199.924-28.871c-28.871-4.082-52.497-23.917-61.537-51.476s-1.751-57.455 19.25-77.725l144.801-140.283c6.124-5.978 9.040-14.728 7.584-23.187l-34.123-198.028c-3.792-22.021 2.187-44.478 16.624-61.392 14.583-17.354 36.019-27.269 58.475-27.269 12.396 0 24.353 3.062 35.579 8.895l178.778 93.473c7.584 3.937 17.060 3.937 24.498 0l178.778-93.619c11.081-5.978 23.041-8.895 35.434-8.895 22.457 0 43.602 9.915 58.33 27.124 14.437 16.914 20.561 39.371 16.769 61.537l-34.123 198.173c-1.46 8.459 1.311 17.208 7.584 23.187l144.514 140.428zM764.885 447.789l-88.222-85.16c-1.896-1.751-2.771-4.522-2.332-7.144l23.041-135.47c1.311-8.165-4.228-16.184-12.541-17.499-0.875 0-1.751-0.145-2.626-0.145-7.29 0-13.707 5.248-15.018 12.687l-23.041 135.325c-2.041 12.396 2.041 25.228 11.23 34.123l88.222 85.305c6.124 5.833 15.748 5.688 21.581-0.436 5.83-6.127 5.83-15.607-0.294-21.585z" />
<glyph unicode="&#xe909;" glyph-name="chepai" d="M882.361 725.009h-740.369c-39.959 0-72.653-32.694-72.653-72.653v-408.241c0-39.959 32.694-72.653 72.653-72.653h740.369c39.959 0 72.653 32.694 72.653 72.653v408.241c0 39.959-32.694 72.653-72.653 72.653zM153.149 212.978c-22.92 0-41.516 18.596-41.516 41.516s18.596 41.516 41.516 41.516 41.516-18.596 41.516-41.516-18.596-41.516-41.516-41.516zM153.149 600.461c-22.92 0-41.516 18.596-41.516 41.516s18.596 41.516 41.516 41.516 41.516-18.596 41.516-41.516-18.596-41.516-41.516-41.516zM290.758 309.848h-55.355v276.774h55.355v-276.774zM401.467 309.848h-55.355v276.774h55.355v-276.774zM567.531 309.848h-55.355v276.774h55.355v-276.774zM678.241 309.848h-55.355v276.774h55.355v-276.774zM788.95 309.848h-55.355v276.774h55.355v-276.774zM871.982 212.978c-22.92 0-41.516 18.596-41.516 41.516s18.596 41.516 41.516 41.516 41.516-18.596 41.516-41.516-18.596-41.516-41.516-41.516zM871.982 600.461c-22.92 0-41.516 18.596-41.516 41.516s18.596 41.516 41.516 41.516 41.516-18.596 41.516-41.516-18.596-41.516-41.516-41.516z" />
<glyph unicode="&#xe90a;" glyph-name="close" d="M582.902 447.446l357.502 357.505c19.239 19.239 19.239 50.874 0 70.114s-50.874 19.239-70.114 0l-357.502-357.505-359.090 359.090c-19.239 19.239-50.774 19.239-70.114 0-19.239-19.239-19.239-50.874 0-70.114l359.090-359.090-358.989-358.989c-19.239-19.239-19.239-50.874 0-70.114s50.874-19.239 70.114 0l358.989 358.993 357.502-357.502c19.239-19.239 50.874-19.239 70.114 0s19.239 50.874 0 70.114l-357.502 357.498z" />
<glyph unicode="&#xe90b;" glyph-name="delete" d="M649.979 416.171l98.805 98.556c6.487 6.497 6.487 17.028 0 23.529l-11.777 11.763c-6.494 6.497-17.028 6.497-23.522 0l-98.839-98.601-98.836 98.597c-6.494 6.497-17.022 6.497-23.533 0l-11.752-11.763c-6.501-6.501-6.501-17.032 0-23.529l98.791-98.549-98.275-98.033c-6.501-6.501-6.501-17.032 0-23.522l11.77-11.763c6.494-6.501 17.022-6.501 23.515 0l98.324 98.075 98.313-98.075c6.494-6.501 17.028-6.501 23.522 0l11.759 11.763c6.504 6.49 6.504 17.022 0 23.522l-98.265 98.030zM786.386 83.368h-0.066l-319.698 0.917c-9.736 0-96.321 1.194-133.63 41.938l-239.821 232.701c-31.974 31.978-31.974 83.613-0.239 115.352l240.347 233.168c45.616 47.678 123.863 42.429 135.733 41.329l317.328 0.675c92.934 0 168.496-75.559 168.496-168.437v-329.208c-0.003-92.871-75.566-168.434-168.451-168.434zM451.304 705.258c-21.533 0-62.544-3.584-86.267-28.598l-0.647-0.657-240.419-233.237c-14.25-14.254-14.25-37.835 0.239-52.328l241.187-234.092c20.298-22.713 81.465-27.826 101.292-27.826l319.705-0.917c68.484 0 124.209 55.718 124.209 124.202v329.208c0 68.488-55.725 124.202-124.216 124.202l-320.947-0.54c-0.18 0.021-5.643 0.581-14.136 0.581z" />
<glyph unicode="&#xe90c;" glyph-name="selected" d="M512.526 5.162c-244.574 0-442.838 198.27-442.838 442.841 0 244.564 198.263 442.834 442.838 442.834s442.838-198.27 442.838-442.834c0-244.571-198.263-442.841-442.838-442.841zM783.107 603.706l-14.233 14.233c-7.864 7.864-20.599 7.864-28.463 0l-295.193-289.066-108.367 113.411c-3.56 3.557-12.818 0.059-20.682-7.802l-14.233-14.233c-7.864-7.864-11.341-17.122-7.784-20.668l144.6-151.309c3.539-3.56 12.797-0.048 20.661 7.802l14.212 14.233c2.515 2.494 4.363 5.082 5.895 7.629l303.586 297.303c7.864 7.847 7.864 20.606 0 28.466z" />
<glyph unicode="&#xe90d;" glyph-name="shenheshibai" d="M305.261 123.286c-71.629-0.028-46.484 0-118.113 0-41.34 0-59.057 26.681-59.057 59.046v590.451c0 52.414 10.151 59.043 59.057 59.043h472.456c45.678 0 59.904-15.309 59.904-59.043v-59.046c0-41.225 59.247-46.564 59.247 0v59.046c0 87.128-28.144 118.089-119.148 118.089h-472.459c-57.894 0-118.113-7.065-118.113-115.525 0-125.126 0.114-172.087 0.114-297.21 0-124.693-0.114-190.341 0.232-315.034 0-11.559 1.498-23.64 5.017-34.569 12.572-39.067 47.868-64.301 90.488-64.474 72.262-0.287 101.617 0.18 140.376 0.18s36.102 59.046 0 59.046zM292.916 537.014c25.522 0.010-0.298 0.010 0 0v0zM246.204 714.132c-42.447 0-44.291-59.835 0-59.835h354.343c40.599 0 47.062 59.804 0 59.835-45.218 0.031-238.074 0.031-354.343 0zM305.261 537c-9.137 0.007-12.244 0.010-12.344 0.014-8.656-0.003-23.214-0.007-46.712-0.014-42.447 0-44.294-59.835 0-59.835h59.057c40.603-0.003 47.062 59.804 0 59.835zM659.946 595.417c-163.155 0.232-295.625-131.959-295.625-295.054 0-163.092 131.838-295.11 294.705-295.141 163.328-0.028 295.515 131.526 295.688 294.245 0.17 163.386-131.613 295.722-294.767 295.951zM658.389 64.586c-129.589 0.377-235.012 106.617-234.725 236.527 0.287 129.565 106.693 235.489 236.167 235.199 130.63-0.315 235.998-106.558 235.648-237.593-0.287-129.16-106.983-234.479-237.091-234.133zM772.683 413.469c-13.361 13.361-35.022 13.358-48.38 0l-64.789-64.779-64.789 64.779c-13.358 13.358-35.019 13.358-48.38 0s-13.361-35.015 0-48.373l64.789-64.779-64.789-64.775c-13.361-13.358-13.361-35.015 0-48.373 6.681-6.681 15.434-10.019 24.19-10.019 8.753 0 17.509 3.342 24.19 10.019l64.789 64.775 64.789-64.775c6.681-6.681 15.434-10.019 24.19-10.019 8.753 0 17.509 3.339 24.19 10.019 13.358 13.358 13.358 35.015 0 48.373l-64.789 64.775 64.789 64.779c13.361 13.361 13.361 35.019 0 48.373z" />
<glyph unicode="&#xe90e;" glyph-name="shenhezhong" d="M305.406 123.051c-71.629-0.028-46.484 0-118.113 0-41.34 0-59.057 26.681-59.057 59.046v590.451c0 52.414 10.151 59.046 59.057 59.046h472.456c45.678 0 59.904-15.309 59.904-59.046v-59.046c0-41.225 59.247-46.564 59.247 0v59.046c0 87.128-28.144 118.089-119.151 118.089h-472.459c-57.894 0-118.113-7.065-118.113-115.525 0-125.126 0.114-172.087 0.114-297.213 0-124.693-0.114-190.341 0.228-315.034 0-11.559 1.498-23.64 5.020-34.566 12.572-39.067 47.868-64.301 90.488-64.474 72.262-0.287 101.617 0.18 140.376 0.18 38.755 0.003 36.105 59.046 0.003 59.046zM293.062 536.779c25.519 0.010-0.301 0.010 0 0v0zM246.349 713.9c-42.447 0-44.291-59.835 0-59.835h354.339c40.603 0 47.062 59.804 0 59.835-45.214 0.028-238.074 0.028-354.339 0zM305.406 536.765c-9.137 0.007-12.244 0.010-12.344 0.014-8.656-0.003-23.214-0.007-46.712-0.014-42.447 0-44.291-59.835 0-59.835h59.057c40.599 0 47.058 59.804 0 59.835zM660.088 595.185c-163.155 0.232-295.625-131.959-295.625-295.054 0-163.092 131.838-295.11 294.705-295.138 163.331-0.031 295.515 131.523 295.688 294.245 0.17 163.383-131.609 295.715-294.767 295.947zM658.531 64.354c-129.589 0.377-235.015 106.613-234.725 236.527 0.287 129.565 106.693 235.489 236.167 235.199 130.63-0.315 235.998-106.558 235.648-237.593-0.287-129.163-106.98-234.479-237.091-234.133zM771.257 320.141h-91.626v117.535c0 18.727-14.434 35.060-33.157 35.624-19.374 0.581-35.264-14.949-35.264-34.188v-136.723c0-27.975 22.682-50.656 50.663-50.656h107.949c18.734 0 35.067 14.434 35.628 33.154 0.578 19.371-14.953 35.254-34.192 35.254z" />
<glyph unicode="&#xe90f;" glyph-name="tishi" d="M512.128 5.162c-244.574 0-442.838 198.263-442.838 442.838s198.263 442.838 442.838 442.838 442.838-198.263 442.838-442.838-198.267-442.838-442.838-442.838zM512.128 827.574c-209.632 0-379.574-169.942-379.574-379.574s169.942-379.578 379.574-379.578 379.578 169.953 379.578 379.578c0 209.628-169.949 379.574-379.578 379.574zM625.346 457.089c-9.345-9.486-26.131-25.47-50.342-47.954-6.684-6.328-12.057-11.891-16.094-16.7-4.027-4.781-7.037-9.172-9.002-13.157-1.913-3.826-3.442-7.829-4.567-11.957-1.072-3.986-2.699-10.984-4.871-21.007-3.736-21.235-15.454-31.864-35.133-31.864-10.227 0-18.855 3.487-25.833 10.417s-10.479 17.274-10.479 30.957c0 17.17 2.55 32.012 7.674 44.578s11.919 23.598 20.371 33.106c8.459 9.483 19.883 20.772 34.251 33.849 12.586 11.452 21.699 20.076 27.297 25.892 5.601 5.802 10.372 12.351 14.171 19.464 3.837 7.144 5.757 14.908 5.757 23.284 0 16.343-5.857 30.134-17.561 41.371-11.708 11.22-26.826 16.849-45.311 16.849-21.658 0-37.6-5.67-47.826-16.994-10.227-11.348-18.893-28.048-25.979-50.106-6.684-23.093-19.378-34.624-38.084-34.624-11.029 0-20.329 4.027-27.899 12.098-7.573 8.058-11.372 16.807-11.372 26.193 0 19.419 6.013 39.070 18.008 58.977 11.998 19.928 29.521 36.42 52.549 49.491 23.024 13.078 49.895 19.613 80.593 19.613 28.525 0 53.736-5.459 75.587-16.385 21.841-10.922 38.71-25.792 50.625-44.599 11.912-18.786 17.866-39.226 17.866-61.281 0-17.357-3.401-32.583-10.189-45.657-6.784-13.064-14.863-24.346-24.204-33.853v0zM508.582 286.579c12.399 0 22.841-4.408 31.293-13.181 8.455-8.801 12.69-19.616 12.69-32.479 0-14.299-4.428-25.536-13.282-33.711-8.857-8.165-19.084-12.251-30.705-12.251-12.002 0-22.484 4.027-31.441 12.098-8.964 8.078-13.43 19.364-13.43 33.867 0 12.856 4.321 23.678 12.991 32.479 8.67 8.77 19.298 13.178 31.884 13.178z" />
<glyph unicode="&#xe910;" glyph-name="uncheck" d="M511.997 856.241c109.045 0 211.562-42.464 288.671-119.57 77.106-77.106 119.57-179.626 119.57-288.671s-42.464-211.562-119.57-288.668c-77.106-77.106-179.626-119.573-288.671-119.573s-211.562 42.464-288.671 119.573c-77.106 77.106-119.57 179.626-119.57 288.668 0 109.045 42.464 211.562 119.57 288.671 77.106 77.106 179.626 119.57 288.671 119.57zM511.997 890.838c-244.574 0-442.838-198.263-442.838-442.838 0-244.571 198.263-442.838 442.838-442.838s442.838 198.267 442.838 442.838c0 244.571-198.267 442.838-442.838 442.838v0z" />
<glyph unicode="&#xe911;" d="M755.848 5.197h-487.502c-109.779 0-199.090 89.311-199.090 199.087v487.499c0 109.775 89.311 199.087 199.090 199.087h487.499c109.775 0 199.087-89.311 199.087-199.087v-487.499c0.003-109.779-89.308-199.087-199.083-199.087zM268.346 847.239c-85.72 0-155.457-69.737-155.457-155.457v-487.499c0-85.717 69.737-155.457 155.457-155.457h487.499c85.717 0 155.457 69.74 155.457 155.457v487.499c0 85.72-69.74 155.457-155.457 155.457h-487.499z" />
<glyph unicode="&#xe912;" d="M723.528 470.287h-189.175v189.175c0 12.292-9.964 22.256-22.256 22.256s-22.256-9.964-22.256-22.256v-189.175h-189.175c-12.292 0-22.256-9.964-22.256-22.256s9.964-22.256 22.256-22.256h189.175v-189.175c0-12.292 9.964-22.256 22.256-22.256s22.256 9.964 22.256 22.256v189.175h189.175c12.292 0 22.256 9.964 22.256 22.256s-9.964 22.256-22.256 22.256z" />
<glyph unicode="&#xe913;" glyph-name="calendar" d="M480.417 339.654h64.557c18.077 0 32.282 15.901 32.282 36.129s-14.205 36.122-32.282 36.122h-64.557c-18.077 0-32.282-15.894-32.282-36.122s14.205-36.129 32.282-36.129v0zM480.417 195.164h64.557c18.077 0 32.282 15.89 32.282 36.129 0 20.225-14.205 36.115-32.282 36.115h-64.557c-18.077 0-32.282-15.89-32.282-36.115 0-20.239 14.205-36.129 32.282-36.129v0zM828.418 783.29h-126.524v30.473c0 17.067-13.918 30.483-31.632 30.483-17.71 0-31.625-13.417-31.625-30.483v-30.473h-253.051v30.473c0 17.067-13.918 30.483-31.632 30.483s-31.628-13.417-31.628-30.483v-30.473h-126.531c-69.591 0-126.52-54.867-126.52-121.929v-487.665c0-67.059 56.929-121.929 126.52-121.929h632.628c69.591 0 126.527 54.867 126.527 121.929v487.665c-0.007 67.062-56.946 121.929-126.534 121.929v0zM891.685 173.697c0-33.524-28.47-60.963-63.267-60.963h-632.628c-34.794 0-63.26 27.439-63.26 60.963v365.753h759.155v-365.753zM891.685 600.402h-759.155v60.959c0 33.531 28.466 60.97 63.26 60.97h126.531v-30.483c0-17.073 13.915-30.487 31.628-30.487s31.632 13.413 31.632 30.487v30.483h253.051v-30.483c0-17.073 13.915-30.487 31.625-30.487 17.717 0 31.632 13.413 31.632 30.487v30.483h126.524c34.797 0 63.267-27.442 63.267-60.97v-60.959zM286.737 195.164h64.557c18.080 0 32.282 15.89 32.282 36.129 0 20.225-14.205 36.115-32.282 36.115h-64.557c-18.077 0-32.275-15.89-32.275-36.115-0.003-20.239 14.198-36.129 32.275-36.129v0zM674.089 339.654h64.568c18.080 0 32.275 15.901 32.275 36.129s-14.198 36.122-32.275 36.122h-64.568c-18.073 0-32.275-15.894-32.275-36.122s14.202-36.129 32.275-36.129v0zM286.737 339.654h64.557c18.080 0 32.282 15.901 32.282 36.129s-14.205 36.122-32.282 36.122h-64.557c-18.077 0-32.275-15.894-32.275-36.122s14.198-36.129 32.275-36.129v0zM674.089 195.164h64.568c18.080 0 32.275 15.89 32.275 36.129 0 20.225-14.198 36.115-32.275 36.115h-64.568c-18.073 0-32.275-15.89-32.275-36.115 0-20.239 14.202-36.129 32.275-36.129v0z" />
<glyph unicode="&#xe914;" glyph-name="choose" d="M954.973 695.996c0 0-141.708-47.235-307.035-236.181-153.516-171.229-188.943-242.083-247.989-336.557-5.906 5.906-94.473 177.135-330.651 301.13l123.995 118.089c0 0 112.187-76.76 188.943-218.468 0 0 194.849 301.13 572.738 448.743v-76.756z" />
<glyph unicode="&#xe915;" glyph-name="dangqianweizhi" d="M510.080 613.974c50.74-0.073 91.813-41.267 91.74-92.006s-41.267-91.813-92.006-91.74c-50.74 0.073-91.813 41.267-91.74 92.006 0.035 24.218 9.632 47.439 26.698 64.62 17.281 17.392 40.793 27.155 65.308 27.12zM510.080 669.319c-81.61-0.125-147.673-66.384-147.548-147.994s66.384-147.673 147.994-147.548c81.61 0.125 147.673 66.384 147.548 147.994-0.059 39.17-15.665 76.711-43.395 104.378-27.684 27.805-65.36 43.353-104.6 43.17zM763.563 783.328c-135.325 139.992-358.515 143.78-498.507 8.455-2.865-2.771-5.684-5.587-8.455-8.455-139.805-144.593-139.805-373.99 0-518.584l253.48-259.569 253.48 259.569c139.809 144.593 139.809 373.99 0.003 518.584zM725.375 301.272l-215.292-221.381-215.292 221.381c-118.867 122.58-118.867 317.414 0 439.994 115.363 118.902 305.271 121.773 424.173 6.411 2.169-2.103 4.307-4.242 6.411-6.411 118.864-122.58 118.864-317.411 0-439.994z" />
<glyph unicode="&#xe916;" glyph-name="empty" d="M413.714 812.123h196.817c21.737 0.003 39.357 17.624 39.357 39.357 0.003 21.741-17.62 39.364-39.357 39.368h-196.817c-0.003 0-0.007 0-0.010 0-21.741-0.003-39.361-17.627-39.357-39.368s17.627-39.361 39.368-39.357zM610.531 261.036c21.703 0.086 39.278 17.658 39.364 39.364v236.181c0 0.021 0 0.038 0 0.059-0.017 21.741-17.651 39.35-39.392 39.333s-39.35-17.655-39.333-39.392v-236.181c-0.003-21.741 17.62-39.364 39.361-39.364zM886.073 772.759h-747.905c-21.741 0-39.364-17.624-39.364-39.364s17.624-39.364 39.364-39.364h19.682v-581.398c0.086-59.313 48.148-107.374 107.461-107.461h493.615c59.202 0 107.461 48.259 107.461 107.461v581.398h19.682c21.741 0 39.364 17.624 39.364 39.364 0.003 21.741-17.62 39.364-39.361 39.364zM787.587 112.713c0-15.883-12.853-28.771-28.736-28.812h-493.536c-15.825 0-28.736 12.911-28.736 28.812v581.318h551.008v-581.318zM413.714 261.036c0 0 0 0 0 0 21.741 0 39.364 17.624 39.364 39.364v236.181c0 21.741-17.624 39.364-39.364 39.364s-39.364-17.624-39.364-39.364v-236.181c0-21.741 17.624-39.364 39.364-39.364z" />
<glyph unicode="&#xe917;" glyph-name="minus" d="M755.886 5.335h-487.499c-109.779 0-199.090 89.311-199.090 199.087v487.499c0 109.775 89.311 199.087 199.090 199.087h487.499c109.775 0 199.087-89.311 199.087-199.087v-487.499c0-109.775-89.308-199.087-199.087-199.087zM268.387 847.377c-85.72 0-155.457-69.737-155.457-155.457v-487.499c0-85.717 69.737-155.457 155.457-155.457h487.499c85.717 0 155.457 69.74 155.457 155.457v487.499c0 85.72-69.74 155.457-155.457 155.457h-487.499zM307.070 469.758h410.13c11.922 0 21.585-9.663 21.585-21.585s-9.663-21.585-21.585-21.585h-410.13c-11.922 0-21.585 9.663-21.585 21.585s9.663 21.585 21.585 21.585z" />
<glyph unicode="&#xe918;" glyph-name="notice" d="M511.997 889.184c-244.415 0-442.551-198.263-442.551-442.834s198.135-442.841 442.551-442.841 442.551 198.267 442.551 442.841c0 244.574-198.139 442.834-442.551 442.834v0zM471.21 325.988h-120.587c-22.111 0-40.032 24.612-40.032 43.803v150.596c0 19.194 17.921 46.456 40.032 46.456h120.587v-240.855zM713.384 241.091c0-20.031-28.736-36.264-48.792-36.264l-152.094 113.429v257.393l152.094 112.214c20.056 0 48.792-16.233 48.792-36.271v-410.5z" />
<glyph unicode="&#xe919;" glyph-name="parking" d="M646.896 635.635c0 130.343-106.942 235.036-239.326 235.036-6.027 0-18.232 0.073-18.232 0.073h-211.739v-0.446h-108.333v-865.115h121.611v395.212h197.613c9.275-1.066 9.165-0.758 18.72-0.758 132.377 0.003 239.686 105.648 239.686 235.998zM388.479 522.009h-197.606v228.020h197.613c57.763-2.709 110.716-55.531 110.716-113.062-0.003-57.527-52.961-112.225-110.723-114.958zM946.856 218.119c-3.844 7.687-14.423 16.447-14.423 16.447l-43.613 116.753c-9.054 22.132-35.707 33.801-47.335 33.801h-229.051c-11.635 0-38.271-11.669-47.328-33.801l-43.623-116.753c0 0-10.555-8.76-14.434-16.447-3.871-7.656-8.089-14.51-8.089-66.267 0-50.501 10.126-68.432 22.232-74.663l9.573-5.411v-46.882c0-15.191 3.605-19.713 18.049-19.713h32.389c14.423 0 24.148-0.059 24.148 15.136v45.598h243.218v-45.598c0-15.191 9.711-15.136 24.135-15.136h32.4c14.434 0 18.039 4.518 18.039 19.713v46.882l9.573 5.411c12.112 6.227 22.232 24.152 22.253 74.663 0.003 51.753-4.221 58.61-8.113 66.267zM579.571 248.273c1.809 6.611 13.929 58.378 19.295 76.32 2.207 6.193 16.555 24.65 33.289 23.598h189.614c16.724 1.055 31.085-17.402 33.254-23.598 5.39-17.942 17.489-69.709 19.322-76.32 2.159-7.843-4.968-7.155-4.968-7.155h-284.838c0.007 0.003-7.141-0.685-4.968 7.155zM584.262 121.532c-19.225 0-34.856 15.669-34.856 34.835 0 19.205 15.631 34.835 34.856 34.835 19.191 0 34.818-15.631 34.818-34.835 0.010-19.17-15.62-34.835-34.818-34.835zM870.737 121.532c-19.205 0-34.856 15.669-34.856 34.835 0 19.205 15.648 34.835 34.856 34.835 19.187 0 34.822-15.631 34.822-34.835 0-19.17-15.634-34.835-34.822-34.835z" />
<glyph unicode="&#xe91a;" glyph-name="pay" d="M105.060 318.19c0 47.93 24.889 100.016 126.71 107.572 101.863 7.518 239.378-81.849 239.378-81.849s-101.572-140.3-221.249-140.3c-119.694 0-144.839 66.644-144.839 114.577v0zM379.91 849.145v-114.065h-206.656v-50.12l206.65 1.733v-76.061h-165.756v-39.759h341.2c0 0-3.723-32.192-16.817-72.286-13.057-40.104-26.536-75.182-26.536-75.182s-160.207 63.613-244.647 63.613c-84.464 0-187.12-38.485-197.080-150.129-9.926-111.644 47.83-172.125 129.16-194.427 81.347-22.298 156.481 0.294 221.907 36.583 65.405 36.285 129.551 118.753 129.551 118.753l339.196-186.929c0 0 21.336 36.558 36.69 70.501 15.33 33.929 28.061 72.667 28.061 72.667l-354.869 135.363c0 0 21.716 36.887 44.903 109.187 23.197 72.286 26.484 112.038 26.484 112.038l-182.92 1.74v70.857l221.53 1.737v50.117h-221.53v114.065h-108.519z" />
<glyph unicode="&#xe91b;" glyph-name="return" d="M748.295 486.271c10.933-10.936 16.402-21.869 16.402-38.271 0-10.933-5.466-27.335-16.402-38.271l-388.165-388.168c-21.869-21.869-54.673-21.869-76.542 0s-21.869 54.673 0 76.542l349.897 349.897-349.894 349.897c-21.869 21.869-21.869 54.67 0 76.538s54.67 21.869 76.542 0l388.161-388.165z" />
<glyph unicode="&#xe91c;" glyph-name="search" d="M933.969 88.862l-177.685 167.458c52.95 66.055 84.696 149.845 84.696 241.084 0 213.116-172.759 385.86-385.854 385.86-213.081 0-385.84-172.745-385.84-385.86 0-213.088 172.759-385.85 385.84-385.85 95.027 0 181.972 34.42 249.214 91.384l173.094-169.96c11.604-11.403 40.326-33.898 65.464-8.784 26.563 26.588 2.643 53.262-8.929 64.668zM142.099 497.401c0 172.631 140.425 313.055 313.027 313.055 172.631 0 313.055-140.425 313.055-313.055 0-172.593-140.425-313.017-313.055-313.017-172.603 0-313.027 140.425-313.027 313.017z" />
<glyph unicode="&#xe91d;" glyph-name="success" d="M512.28 890.858c-244.574 0-442.841-198.27-442.841-442.838 0-244.564 198.263-442.838 442.841-442.838 244.564 0 442.834 198.274 442.834 442.838 0 244.568-198.27 442.838-442.834 442.838v0zM512.28 68.011c-209.559 0-380.017 170.482-380.017 380.010 0 209.559 170.475 380.014 380.017 380.014 209.528 0 380.017-170.479 380.017-380.014 0-209.552-170.465-380.010-380.017-380.010v0zM448.615 349.725l-126.188 97.843-62.751-63.433 211.777-190.531c0 0 125.399 285.34 294.992 417.264l-17.547 26.318c0.003-0.003-140.134-69.865-300.282-287.461v0z" />
<glyph unicode="&#xe91e;" glyph-name="tianjiachepai" d="M512.301 5.034c-244.571 0-442.838 198.277-442.838 442.845s198.263 442.831 442.838 442.831c244.574 0 442.838-198.263 442.838-442.831s-198.263-442.845-442.838-442.845zM512.301 835.358c-214.001 0-387.483-173.478-387.483-387.48s173.478-387.48 387.483-387.48 387.483 173.482 387.483 387.48-173.482 387.48-387.483 387.48zM678.365 420.198h-138.383v-138.387c0-15.278-12.393-27.67-27.677-27.67s-27.674 12.396-27.674 27.67v138.387h-138.387c-15.285 0-27.677 12.393-27.677 27.681 0 15.278 12.393 27.67 27.677 27.67h138.387v138.39c0 15.278 12.393 27.667 27.674 27.667 15.288 0 27.677-12.386 27.677-27.667v-138.39h138.383c15.288 0 27.677-12.393 27.677-27.67 0-15.288-12.389-27.681-27.677-27.681z" />
<glyph unicode="&#xe91f;" glyph-name="wallet" d="M695.221 365.231c0-0.017 0-0.035 0-0.052-0.014-21.959 17.776-39.769 39.734-39.783s39.769 17.776 39.783 39.734c0 0.017 0 0.035 0 0.052 0.014 21.959-17.776 39.769-39.734 39.783s-39.769-17.776-39.783-39.734zM756.657 842.382c-18.177 32.953-59.977 45.007-92.934 26.83l-285.309-157.674h450.47l-72.228 130.845zM954.966 599.651c0 37.62-30.815 68.436-68.436 68.436h-748.804c-37.62 0-68.436-30.815-68.436-68.436v-512.879c0-37.62 30.815-68.436 68.436-68.436h748.804c37.62 0 68.436 30.815 68.436 68.436v190.822h-248.563c-37.62 0-68.436 30.815-68.436 68.436v43.744c0 37.62 30.815 68.436 68.436 68.436h248.563v141.442z" />
<glyph unicode="&#xe920;" glyph-name="WeChat" d="M386.725 346.172c-3.996-2.020-8.504-3.183-13.292-3.183-11.064 0-20.689 6.089-25.74 15.084l-1.937 4.242-80.621 176.668c-0.868 1.927-1.412 4.093-1.412 6.203 0 8.148 6.608 14.749 14.759 14.749 3.318 0 6.373-1.093 8.846-2.923l95.12-67.637c6.954-4.556 15.254-7.213 24.18-7.213 5.342 0 10.417 0.989 15.153 2.719l447.387 198.865c-80.178 94.387-212.261 156.080-361.722 156.080-244.578 0-442.834-165.002-442.834-368.548 0-111.066 59.652-211.023 153.014-278.576 7.494-5.338 12.393-14.112 12.393-24.014 0-3.269-0.702-6.279-1.553-9.396-7.456-27.785-19.395-72.255-19.955-74.341-0.927-3.484-2.384-7.127-2.384-10.777 0-8.141 6.611-14.738 14.769-14.738 3.214 0 5.819 1.187 8.532 2.744l96.947 55.888c7.29 4.214 15.012 6.812 23.512 6.812 4.525 0 8.902-0.695 13.022-1.951 45.225-12.991 94.017-20.215 144.542-20.215 244.564 0 442.841 165.009 442.841 368.562 0 61.644-18.288 119.711-50.442 170.776l-513.124-295.878z" />
<glyph unicode="&#xe921;" glyph-name="weixuanze" d="M755.896 856.047c90.699 0 164.49-73.791 164.49-164.49v-487.499c0-90.699-73.791-164.49-164.49-164.49h-487.499c-90.702 0-164.493 73.791-164.493 164.49v487.499c0 90.699 73.791 164.49 164.493 164.49h487.499zM755.896 890.644h-487.499c-109.779 0-199.090-89.311-199.090-199.087v-487.499c0-109.775 89.311-199.087 199.090-199.087h487.499c109.775 0 199.087 89.311 199.087 199.087v487.499c0 109.775-89.311 199.087-199.087 199.087v0z" />
<glyph unicode="&#xe922;" glyph-name="xiala" d="M557.91 220.475c-12.448-12.448-29.345-24.007-45.349-20.45-16.004-2.667-31.12 9.78-43.571 20.45l-385.013 386.795c-19.561 19.561-19.561 51.573 0 71.134s51.573 19.561 71.134 0l358.342-368.123 359.231 368.123c19.561 19.561 51.573 19.561 71.134 0s19.561-51.573 0-71.134l-385.909-386.795z" />
<glyph unicode="&#xe923;" glyph-name="yixuanze" d="M755.896 890.644h-487.499c-109.779 0-199.090-89.311-199.090-199.087v-487.499c0-109.775 89.311-199.087 199.090-199.087h487.499c109.775 0 199.087 89.311 199.087 199.087v487.499c0 109.775-89.311 199.087-199.087 199.087zM843.128 614.967l-396.371-394.42c-8.054-8.016-18.755-12.427-30.141-12.427-11.379 0-22.083 4.415-30.141 12.424l-205.314 204.304c-8.064 8.026-12.51 18.7-12.507 30.054 0 11.355 4.442 22.021 12.507 30.047 8.054 8.013 18.758 12.431 30.141 12.431 11.379 0 22.083-4.415 30.137-12.42l175.177-174.315 366.223 364.428c8.058 8.016 18.762 12.431 30.144 12.431s22.083-4.415 30.141-12.431c8.061-8.023 12.503-18.693 12.503-30.044 0.007-11.362-4.435-22.035-12.5-30.061z" />
<glyph unicode="&#xe924;" glyph-name="changjianwenti" d="M174.374 890.855h675.542c51.854 0 93.864-41.8 93.864-93.332v-568.756c0-51.497-42.011-93.3-93.864-93.3h-206.404l-89.512-110.294c-18.689-23.187-52.687-26.698-75.877-7.943-2.92 2.349-5.57 5.013-7.905 7.943l-89.467 110.294h-206.38c-51.812 0-93.895 41.876-93.895 93.3v568.756c0.003 51.532 41.983 93.332 93.899 93.332zM512.131 243.381c14.261-0.214 28.003 5.362 38.081 15.454 10.455 10.040 16.215 24.007 15.88 38.496 0.343 14.493-5.418 28.463-15.88 38.499-10.078 10.095-23.816 15.672-38.081 15.454-14.32 0.138-28.068-5.601-38.046-15.876-10.324-9.96-16.081-23.74-15.914-38.084 0-15.312 5.304-28.169 15.914-38.496 10.061-10.095 23.792-15.669 38.046-15.447zM581.121 509.053c18.706 17.198 37.095 34.742 55.151 52.622 10.251 10.396 19.104 22.765 26.556 37.133 7.449 14.333 11.168 31.016 11.168 50.058 0 24.169-6.463 46.612-19.606 67.235-13.603 21.135-32.818 38.067-55.5 48.899-23.955 11.943-51.639 17.949-82.831 17.949-33.718 0-63.198-7.165-88.412-21.53-25.259-14.299-44.474-32.389-57.648-54.237s-19.741-43.346-19.741-64.737c0-10.254 4.148-19.848 12.469-28.629 7.798-8.642 18.952-13.486 30.59-13.282 20.481 0 34.427 12.61 41.769 37.939 7.763 24.204 17.253 42.502 28.494 54.978 11.202 12.399 28.736 18.616 52.48 18.616 20.232 0 36.818-6.151 49.601-18.478 12.932-12.33 19.315-27.504 19.315-45.346 0-9.206-2.107-17.703-6.324-25.539-4.162-7.802-9.39-14.991-15.527-21.357-6.182-6.359-16.153-15.88-29.926-28.387-13.168-11.714-25.716-24.107-37.589-37.133-9.272-10.466-16.721-22.55-22.343-36.323-5.93-15.593-8.791-32.185-8.428-48.864 0-15.005 3.861-26.349 11.524-34.009 7.473-7.525 17.714-11.642 28.314-11.382 21.568 0 34.42 11.666 38.499 34.957 2.387 10.96 4.217 18.62 5.335 23.010 1.284 4.511 2.979 8.898 5.061 13.102 2.107 4.359 5.477 9.168 9.839 14.472 4.494 5.269 10.327 11.31 17.7 18.34l0.010-0.076z" />
<glyph unicode="&#xe925;" glyph-name="yijianfankui" d="M773.606 614.417c-53.071-55.849-104.174-112.986-104.174-112.986-26.207-28.245-69.449-29.532-96.314-2.567-27.518 26.961-28.829 71.255-2.622 99.504 0 0 104.831 109.775 176.246 183.598 43.896 44.934-4.584 56.493-45.861 56.493h-556.907c-45.208 0-75.999-22.471-75.999-70.615v-683.683c0-48.148 28.172-78.96 73.38-78.96h635.531c45.208 0 76.002 30.172 76.002 78.317v520.625c-5.899 59.063-30.141 60.987-79.282 10.275v0zM193.769 525.825h252.902c17.035 0 25.553-7.705 25.553-26.321 0-17.976-8.518-26.321-25.553-26.321h-252.902c-17.035 0-25.553 7.701-25.553 26.321 0.657 18.616 9.172 26.321 25.553 26.321zM725.78 213.192h-532.011c-17.035 0-25.553 7.701-25.553 26.321 0 17.973 8.518 26.321 25.553 26.321h532.011c17.035 0 25.553-7.705 25.553-26.321-0.657-17.976-9.175-26.321-25.553-26.321zM945.265 882.109c-9.825 10.272-23.585 11.555-31.448 3.211l-329.558-331.893c-7.86-8.345-6.553-23.751 3.276-34.022 9.825-10.272 23.585-11.555 31.448-3.211l329.558 331.893c7.864 8.345 6.553 23.754-3.276 34.022z" />
<glyph unicode="&#xe926;" glyph-name="yijianfankui2x" d="M512.125 890.845l-357.263-206.262 359.55-207.58 357.263 206.262-359.55 207.58zM120.282 212.047l358.404-206.878v415.25l-358.404 206.878v-415.25zM545.562 417.693v-412.524l358.404 206.878v412.611l-358.404-206.964z" />
<glyph unicode="&#xe927;" glyph-name="android" d="M748.389 591.718c-79.41-0.221-158.823-2.74-238.233-2.74-78.967 0-157.91 0-236.877 0-9.217 0-8.442 5.203-8.442-3.986 0-113.982 0-227.937 0-341.919 0-3.211-0.304-6.421-0.083-9.604 2.131-29.255 27.456-53.282 56.797-53.587 11.431-0.111 22.806-0.415 34.213 0.138 6.421 0.304 7.86-1.771 7.805-7.971-0.304-36.621-0.221-73.238-0.138-109.858 0.028-21.284 8.525-38.392 26.985-49.214 37.063-21.754 82.537 4.401 82.786 47.442 0.249 37.534 0.138 75.064-0.055 112.598-0.028 5.203 1.079 7.085 6.726 7.002 19.9-0.36 39.831-0.415 59.731 0.028 6.366 0.138 7.501-2.076 7.473-7.86-0.249-37.063-0.111-74.151-0.111-111.215 0-4.567 0.055-9.161 1.162-13.645 7.058-28.065 32.275-44.979 61.724-41.381 26.183 3.211 46.225 26.736 46.252 54.528 0.055 34.794 0 69.584 0 104.351 0 15.056 0 14.89 15.112 15.112 12.787 0.194 25.74-1.688 38.337 1.162 28.701 6.504 46.612 30.583 46.612 62.056 0.028 114.425-0.028 227.549 0.166 341.971 0 6.342-1.716 6.591-7.943 6.591zM885.042 543.556c0 4.788-0.304 9.604-0.886 14.337-3.377 27.76-28.397 48.051-57.517 46.778-27.318-1.19-50.874-24.744-51.151-52.203-0.387-38.89-0.111-77.777-0.083-116.667 0-39.361-0.304-78.69 0.111-118.051 0.249-22.861 17.52-43.734 39.61-49.546 36.288-9.549 69.861 16.44 69.916 54.362 0.083 73.656 0.028 147.309 0 220.99zM242.53 565.369c-7.833 25.795-38.032 42.682-64.021 39.029-27.982-3.93-52.065-26.515-52.065-54.777 0-38.198 0-76.393 0-114.591 0-37.977 4.373-75.95 4.428-113.927 0-3.653 2.214-7.39 2.961-10.905 6.089-28.895 32.165-46.501 62.444-43.429 26.487 2.685 47.525 26.266 47.553 54.5 0.055 76.172 0.304 152.343 0.304 228.518-0.028 5.259-0.055 10.49-1.605 15.582zM744.348 682.867c-20.149 55.33-57.213 96.020-108.253 124.417-4.594 2.574-4.899 4.235-2.408 8.635 11.431 20.288 22.419 40.855 33.687 61.226 2.602 4.677 3.903 9.050-1.467 12.482-4.262 2.74-8.497 0.775-11.901-5.369-11.348-20.62-22.751-41.215-33.825-61.973-2.325-4.373-4.428-5.037-8.995-3.1-31.749 13.451-65.018 19.845-99.396 20.066-35.818 0.249-70.47-6.117-103.493-20.204-4.401-1.882-6.227-0.969-8.414 3.1-9.3 17.547-18.987 34.905-28.563 52.341-2.297 4.207-4.567 8.442-7.058 12.538-2.242 3.709-5.757 4.484-9.549 2.989-3.847-1.495-4.622-4.899-3.903-8.525 0.387-1.965 1.439-3.819 2.408-5.619 10.822-19.872 21.422-39.831 32.659-59.454 3.072-5.369 1.522-6.947-3.1-9.604-71.632-41.381-113.65-101.915-119.462-185.753-0.415-6.034 1.024-8.137 7.639-8.109 79.41 0.249 158.795 0.166 238.205 0.166 79.631 0 159.266 0.083 238.897-0.138 6.56-0.028 8.718 1.439 8.248 8.22-1.467 21.090-4.705 41.737-11.957 61.669zM397.312 702.213c-11.597 0.277-20.398 9.715-20.149 21.588 0.249 11.431 9.189 19.928 20.924 19.817 12.040-0.111 20.592-8.857 20.481-20.952-0.138-11.68-9.549-20.758-21.256-20.454zM621.647 702.213c-11.348 0.138-20.62 9.798-20.481 21.367 0.138 11.292 9.217 20.038 20.786 20.038 11.846 0 20.841-8.967 20.813-20.758 0.031-11.514-9.493-20.786-21.118-20.647z" />
<glyph unicode="&#xe928;" glyph-name="apple" d="M753.734 414.237h0.1c-1.117 164.76 91.467 169.022 95.629 171.662-52.078 76.137-133.087 88.114-161.916 89.232-68.93 7.006-134.509-39.793-169.531-39.793-34.922 0-88.927 39.897-146.081 38.88-75.12-1.117-144.455-43.55-183.234-110.855-78.064-135.522-19.997-336.218 56.137-446.059 37.153-53.805 81.517-114.204 139.788-112.073 56.036 2.235 77.254 36.344 145.064 36.344 67.813 0 86.796-36.344 146.181-35.126 60.302 1.117 98.573 54.818 135.422 108.824 42.737 62.433 60.299 119.788 61.316 122.832-1.318 0.612-117.656 66.291-118.874 176.132zM733.533 890.852c-122.327 0-221.405-99.182-221.405-221.405 122.223 0 221.405 99.078 221.405 221.405z" />
<glyph unicode="&#xe929;" glyph-name="Check" d="M438.454 5.162c-123.071 161.729-267.861 284.956-369.216 323.465l238.904 154.031 115.837-238.752c0 0 188.227 485.198 485.049 646.931-7.234-115.522-36.199-215.641 14.482-338.868-130.315-30.808-398.18-377.374-485.056-546.808z" />
<glyph unicode="&#xe92a;" glyph-name="circle" d="M510.533 891.561c-244.571 0-442.838-198.267-442.838-442.838s198.267-442.838 442.838-442.838 442.838 198.267 442.838 442.838-198.267 442.838-442.838 442.838zM510.533 127.271c-177.533 0-321.452 143.919-321.452 321.452s143.919 321.452 321.452 321.452 321.452-143.919 321.452-321.452-143.919-321.452-321.452-321.452z" />
<glyph unicode="&#xe92b;" glyph-name="e-mail" d="M953.139 286.952v367.628l-191.839-191.894zM629.414 330.859l-0.055-0.055c-31.282-31.459-73.847-49.1-118.21-48.992-44.64 0-86.679 17.406-118.269 48.992l-102.898 102.953-220.827-202.405v-33.905c0-44.356 36.050-80.41 80.351-80.41h723.279c44.301 0 80.351 36.050 80.351 80.351v35.033l-220.319 201.841-103.403-103.403zM69.159 654.58v-368.7l192.344 176.298zM874.425 806.865h-723.275c-44.246 0-80.24-36.050-80.24-80.351v-16.783l352.091-352.201c24.014-23.958 55.939-37.181 89.844-37.181 33.96 0 65.886 13.223 89.844 37.181l352.146 352.201v16.783c0 44.301-36.164 80.351-80.41 80.351z" />
<glyph unicode="&#xe92c;" glyph-name="iphone" d="M511.997 890.838c-244.751 0-442.838-198.561-442.838-442.838 0-244.751 198.561-442.838 442.838-442.838 244.751 0 442.838 198.561 442.838 442.838 0.474 244.273-198.087 442.838-442.838 442.838zM684.368 244.198c-31.428-31.428-147.614-1.429-262.845 113.328-114.757 114.757-144.279 231.417-112.851 262.368 27.141 27.141 59.998 74.283 109.519 12.856s25.238-78.569-2.858-106.662c-19.523-19.523 21.429-69.045 63.807-111.422 42.855-42.377 91.899-83.33 111.422-63.807 28.093 28.093 45.235 52.379 106.662 2.858 61.904-49.522 14.285-82.852-12.856-109.519v0z" />
<glyph unicode="&#xe92d;" glyph-name="QQ" d="M875.193 373.392c-16.129 42.751-78.375 139.864-79.109 188.666h-0.37c0.125 2.598 0.37 5.193 0.37 7.784 0 177.305-127.132 320.999-283.939 320.999-156.872 0-283.942-143.69-283.942-320.999 0-2.591 0.249-5.186 0.308-7.784h-0.308c-0.733-48.802-62.918-145.915-79.109-188.666-16.191-42.876-20.239-86.118-12.759-120.469 7.483-34.223 13.614-55.476 20.73-62.146 7.054-6.795 13.797-13.963 35.202 1.111 17.17 14.209 35.936 43.121 35.936 43.121s15.517-44.848 50.165-79.078c-27.169-12.849-66.478-41.391-69.297-60.046-2.699-18.537 41.212-89.083 144.362-90.688 103.154-1.481 137.432 43.121 140.809 46.581 9.625 10.13 17.904 16.305 17.904 16.305s8.341-6.176 17.907-16.305c3.37-3.46 37.652-48.065 140.805-46.581 103.147 1.605 147.057 72.155 144.299 90.688-2.761 18.655-42.132 47.2-69.238 60.046 34.586 34.227 50.165 79.078 50.165 79.078s18.765-28.912 35.939-43.121c21.339-15.074 28.086-7.905 35.199-1.111 7.117 6.67 13.188 27.923 20.73 62.146 7.48 34.351 3.373 77.593-12.759 120.469z" />
<glyph unicode="&#xe92e;" glyph-name="WeChat1" d="M668.782 596.665c10.175 0 20.201-0.813 30.272-1.965-27.124 131.779-162.124 229.66-316.304 229.66-172.305 0-313.46-122.493-313.46-278.112 0-89.792 46.927-163.521 125.413-220.793l-31.307-98.348 109.606 57.278c39.181-8.013 70.608-16.35 109.755-16.35 9.843 0 19.599 0.471 29.217 1.235-6.072 21.869-9.684 44.747-9.684 68.598 0.066 142.843 117.618 258.797 266.491 258.797zM500.279 685.302c23.678 0 39.25-16.236 39.25-40.821 0-24.488-15.572-40.89-39.25-40.89-23.425 0-47.003 16.406-47.003 40.89 0 24.654 23.526 40.821 47.003 40.821zM280.904 603.595c-23.526 0-47.211 16.406-47.211 40.89 0 24.581 23.685 40.821 47.211 40.821s39.146-16.17 39.146-40.821c-0.003-24.488-15.624-40.89-39.146-40.89zM954.966 341.802c0 130.713-125.444 237.254-266.322 237.254-149.181 0-266.585-106.613-266.585-237.254 0-131.077 117.47-237.292 266.585-237.292 31.237 0 62.724 8.154 94.072 16.347l85.935-49.186-23.564 81.745c62.931 49.331 109.879 114.619 109.879 188.386zM602.187 382.726c-15.572 0-31.348 16.164-31.348 32.694 0 16.281 15.783 32.663 31.348 32.663 23.799 0 39.229-16.385 39.229-32.663 0-16.53-15.43-32.694-39.229-32.694zM774.613 382.726c-15.43 0-31.172 16.164-31.172 32.694 0 16.281 15.672 32.663 31.172 32.663 23.598 0 39.233-16.385 39.233-32.663 0-16.53-15.634-32.694-39.233-32.694z" />
<glyph unicode="&#xe92f;" glyph-name="weibo" d="M724.728 464.402c-34.483 6.563-18.063 25.442-18.063 25.442s33.663 55.839-6.573 96.075c-50.082 50.082-171.6-6.577-171.6-6.577-45.982-13.96-33.659 6.577-27.1 42.699 0 41.876-14.776 113.301-138.757 70.601-123.161-41.865-229.079-190.479-229.079-190.479-73.899-98.521-64.042-174.059-64.042-174.059 18.059-168.32 197.059-214.299 335.816-224.975 146.157-11.496 343.199 50.079 403.138 177.357 59.939 127.257-49.262 177.339-83.741 183.916zM416.008 149.929c-145.334-6.56-262.738 66.498-262.738 163.397 0 96.881 117.404 174.063 262.738 180.636 145.323 6.56 262.738-52.556 262.738-149.437 0-96.898-117.414-188.019-262.738-194.596zM387.269 430.726c-146.157-17.243-129.734-154.357-129.734-154.357s-0.82-42.685 39.419-64.858c85.395-45.976 173.243-18.059 217.579 38.6 44.336 57.458 18.879 197.039-127.264 180.616zM350.312 238.607c-27.082-3.28-49.259 12.32-49.259 35.299 0 22.996 19.713 46.799 46.799 49.259 31.199 3.297 51.736-14.776 51.736-37.762 0-22.993-22.176-43.516-49.276-46.795zM436.531 311.686c-9.857-6.577-20.523-5.757-25.46 2.46-5.743 8.203-3.28 21.343 5.757 27.916 10.666 8.203 22.163 5.743 27.1-2.474 4.92-8.199 0.82-20.519-7.397-27.902zM796.163 523.507c11.483 0 21.343 9.037 22.983 20.537 0 0.82 0.82 1.64 0.82 2.46 17.243 160.103-131.364 132.194-131.364 132.194-13.14 0-23.816-10.677-23.816-23.82 0-13.136 10.68-23.816 23.816-23.816 106.724 23.816 82.921-83.741 82.921-83.741 0-13.136 10.68-23.813 24.64-23.813zM778.090 802.706c-50.902 12.303-104.264 2.031-119.044-1.252-0.82 0-2.477-0.619-3.297-0.619s-0.82-0.72-0.82-0.72c-14.78-4.117-25.446-18.018-25.446-33.618 0-18.883 15.6-34.465 34.483-34.465 0 0 18.883 2.474 32.019 7.411 12.32 4.92 119.058 3.297 172.42-85.381 28.739-64.858 12.32-108.378 10.677-115.774 0 0-7.397-16.423-7.397-33.666 0-18.883 15.6-31.992 35.316-31.992 15.603 0 29.559-0.778 32.839 28.764h0.82c56.662 202.574-69.792 279.956-162.57 301.313z" />
<glyph unicode="&#xe930;" glyph-name="card" d="M694.726 723.535c0 0-388.684 120.199-368.237-175.869 0 0 11.69-460.23 628.356-439.7 0 0-420.872-82.074-634.209 208.123 0 0-298.092 410.362 149.063 474.857 82.728 11.050 154.882-16.717 225.027-67.412v0zM250.504 673.702l-23.38-38.108c0 0-131.537-32.237-75.999-202.256 0 0 14.627-146.565 286.419-301.922 0 0-374.077 90.879-368.237 398.654-0.003 0-11.676 146.565 181.197 143.632v0zM531.257 254.297l361.861-53.985-14.845-22.336-341.449 46.546-22.27-9.313-31.48 15.115 48.183 23.972zM551.669 362.249l-113.197-68.865 14.845-16.752 94.639 61.423 302.479-68.879-3.712 29.791-295.054 63.281zM445.623 365.809l-4.927-24.633 124.382 87.44 257.386-73.892-29.556 38.177-222.903 62.807-124.382-89.9zM591.583 501.189l-126.136-83.894 12.33 34.379 105.589 77.030 211.161-68.761 1.367-16.516-204.311 57.763zM602.799 563.743l-113.11-78.396 30.348 35.967 78.157 64.564 171.046-59.942 14.711-29.521-181.152 67.329zM611.050 635.846l139.176-52.113 7.424-22.336-152.741 57.51-83.337-63.16-1.301 9.531 90.778 70.567zM536.619 614.42l84.655 77.365 117.549-65.018-9.867-12.348-104.392 54.32-78.901-62.554-9.044 8.234z" />
<glyph unicode="&#xe931;" glyph-name="location" d="M512.121 890.855c-196.44 0-355.682-159.238-355.682-355.682 0-218.388 211.756-409.902 325.008-517.663 17.125-16.395 44.111-16.447 61.302-0.118 110.568 105.001 325.067 300.078 325.067 517.785-0.014 196.44-159.256 355.678-355.696 355.678zM512.121 401.623c-73.767 0-133.554 59.787-133.554 133.554s59.787 133.554 133.554 133.554c73.76 0 133.554-59.793 133.554-133.554s-59.793-133.554-133.554-133.554z" />
<glyph unicode="&#xe932;" glyph-name="nav" d="M954.966 890.848l-885.675-367.42 366.365-152.648 145.832-365.649 373.478 885.717z" />
<glyph unicode="&#xe933;" glyph-name="key" d="M551.15 514.612v98.452h111.74c21.786 0 39.509 17.724 39.509 39.509s-17.724 39.509-39.509 39.509h-111.74v45.083h177.668c21.786 0 39.509 17.724 39.509 39.509s-17.724 39.509-39.509 39.509h-177.668v35.147c0 21.786-17.724 39.509-39.509 39.509s-39.509-17.724-39.509-39.509v-336.872c-123.784-19.395-216.209-126.887-216.209-253.096 0-141.269 114.93-256.202 256.202-256.202s256.202 114.93 256.202 256.202c0 126.71-92.833 234.268-217.177 253.248zM689.308 261.361c0-97.701-79.486-177.184-177.187-177.184-97.698 0-177.184 79.482-177.184 177.184 0 97.698 79.482 177.187 177.184 177.187s177.187-79.486 177.187-177.187z" />
<glyph unicode="&#xe934;" glyph-name="phone" d="M517.1 195.714c-28.411 0-52.411-23.574-52.404-51.781 1.041-29.193 24.062-52.058 52.404-52.058 28.418 0 51.539 23.488 51.539 52.359-0.003 28.387-23.124 51.48-51.539 51.48zM722.479 890.668h-420.758c-53.549 0-97.113-42.775-97.113-95.355v-694.968c0-52.577 43.564-95.352 97.113-95.352h420.758c53.549 0 97.113 42.775 97.113 95.352v694.968c0 52.58-43.564 95.355-97.113 95.355zM275.943 784.892c0 19.032 15.060 34.514 33.576 34.514h403.446c18.516 0 33.576-15.482 33.576-34.514v-485.579h-470.598v485.579zM723.465 65.399h-412.953c-19.385 0-34.569 15.541-34.569 35.386v121.396l472.030-0.104 0.007-127.018c-0.917-24.699-10.061-29.66-24.515-29.66z" />
</font>
</defs>
</svg>
